<?xml version="1.0" standalone="no"?>
<!DOCTYPE svg PUBLIC "-//W3C//DTD SVG 1.1//EN" "http://www.w3.org/Graphics/SVG/1.1/DTD/svg11.dtd" >
<svg xmlns="http://www.w3.org/2000/svg">
<metadata>Generated by IcoMoon</metadata>
<defs>
<font id="i2c-font" horiz-adv-x="1024">
<font-face units-per-em="1024" ascent="960" descent="-64" />
<missing-glyph horiz-adv-x="1024" />
<glyph unicode="&#x20;" horiz-adv-x="512" d="" />
<glyph unicode="&#xe900;" glyph-name="longArrow" horiz-adv-x="1792" d="M1709.261 437.37c24.986 24.995 24.986 65.517 0 90.51l-407.296 407.294c-24.997 24.994-65.519 24.994-90.513 0s-24.995-65.516 0-90.51l362.039-362.038-362.039-362.039c-24.995-24.993-24.995-65.516 0-90.51 24.993-24.993 65.516-24.993 90.513 0l407.296 407.293zM0 418.625h1664v128h-1664v-128z" />
<glyph unicode="&#xe901;" glyph-name="twitter" horiz-adv-x="1268" d="M1232.862 819.879c-45.748-20.037-94.632-33.157-145.676-39.597 52.492 31.010 92.462 79.671 111.245 138.35-48.884-28.863-102.819-49.138-160.368-60.588-46.236 48.899-112.45 79.193-184.452 79.193-139.898 0-252.592-112.588-252.592-250.461 0-19.798 1.687-38.881 5.778-57.010-210.211 10.019-396.104 109.964-521.076 261.911-21.912-37.45-34.674-80.386-34.674-126.661 0-86.827 45.028-163.635 112.21-208.002-40.694 0.715-80.425 12.404-114.137 30.771 0-0.715 0-1.67 0-2.862 0-121.655 87.649-222.792 202.508-245.93-20.468-5.486-43.102-8.348-66.218-8.348-16.133 0-32.507 0.956-47.918 4.291 32.748-99.23 125.695-171.983 236.219-174.368-85.963-66.55-195.284-106.862-313.272-106.862-20.708 0-40.694 0.956-60.439 3.34 111.969-71.563 244.646-112.352 387.678-112.352 465.212 0 719.491 381.655 719.491 712.504 0 10.973-0.483 21.707-0.961 32.441 50.083 35.303 92.223 79.432 126.654 130.24z" />
<glyph unicode="&#xe902;" glyph-name="youtube" horiz-adv-x="1380" d="M1086.802 939.217h-786.752c-154.082 0-279.274-126.376-279.274-281.915v-396.801c0-155.835 125.191-281.916 279.274-281.916h786.458c154.375 0 279.276 126.375 279.276 281.916v396.801c0.289 155.539-124.901 281.915-278.982 281.915zM897.701 439.309l-367.986-177.041c-9.924-4.715-21.010 2.355-21.010 13.548v365.284c0 11.194 11.669 18.264 21.299 13.256l367.99-188.236c11.090-5.601 10.797-21.508-0.294-26.811z" />
<glyph unicode="&#xe903;" glyph-name="facebook" horiz-adv-x="1065" d="M1045.848 445.268c0 279.028-226.144 505.172-505.176 505.172-279.028 0-505.172-226.144-505.172-505.172 0-279.032 226.144-505.176 505.172-505.176 2.961 0 5.923 0 8.88 0.201v393.085h-108.532v126.493h108.532v93.141c0 107.941 65.909 166.747 162.21 166.747 46.174 0 85.84-3.355 97.284-4.933v-112.875h-66.302c-52.294 0-62.554-24.864-62.554-61.372v-80.511h125.305l-16.38-126.493h-108.925v-373.944c211.145 60.58 365.658 254.956 365.658 485.638z" />
<glyph unicode="&#xe904;" glyph-name="linkedin" d="M1015.639-55.844h0.2v372.607c0 182.334-39.286 322.606-252.376 322.606-102.378 0-171.222-56.149-199.199-109.52h-2.974v92.457h-201.977v-678.15h210.312v335.899c0 88.491 16.664 174.004 126.184 174.004 107.934 0 109.519-100.989 109.519-179.556v-330.347h210.312zM16.666 622.304h210.707v-678.152h-210.707v678.152zM122.019 960c-67.458 0-122.019-54.561-122.019-122.019s54.561-123.21 122.019-123.21c67.458 0 122.020 55.95 122.020 123.21-0.199 67.458-54.76 122.019-122.020 122.019z" />
<glyph unicode="&#xe905;" glyph-name="arrow-down-long" horiz-adv-x="214" d="M1.751 116.705h210.823l-103.782-180.705-107.041 180.705zM92.104 960h30.118v-873.412l-30.118 4.51v868.902z" />
<glyph unicode="&#xe906;" glyph-name="Facebook" d="M767.957 959.787l-132.789 0.213c-149.183 0-245.59-98.913-245.59-252.008v-116.193h-133.514c-11.537 0-20.88-9.353-20.88-20.89v-168.351c0-11.536 9.353-20.879 20.88-20.879h133.514v-424.801c0-11.536 9.343-20.879 20.879-20.879h174.196c11.536 0 20.879 9.353 20.879 20.879v424.801h156.109c11.536 0 20.879 9.343 20.879 20.879l0.065 168.351c0 5.54-2.204 10.844-6.114 14.764s-9.238 6.125-14.775 6.125h-156.163v98.498c0 47.342 11.283 71.375 72.952 71.375l89.452 0.032c11.528 0 20.871 9.353 20.871 20.88v156.322c0 11.516-9.332 20.859-20.849 20.88z" />
<glyph unicode="&#xe907;" glyph-name="Instagram" d="M704 960h-384c-176.704 0-320-143.296-320-320v-384c0-176.705 143.296-320 320-320h384c176.705 0 320 143.295 320 320v384c0 176.704-143.295 320-320 320zM928 256c0-123.519-100.481-224-224-224h-384c-123.52 0-224 100.481-224 224v384c0 123.52 100.48 224 224 224h384c123.519 0 224-100.48 224-224v-384zM512 703.947c-141.377 0-256-114.625-256-256.001 0-141.374 114.623-256 256-256s256 114.626 256 256c0 141.377-114.623 256.001-256 256.001zM512 287.946c-88.191 0-160 71.809-160 160 0 88.258 71.809 160 160 160s160-71.742 160-160c0-88.191-71.809-160-160-160zM787.216 689.093c18.842 0 34.113 15.272 34.113 34.111s-15.271 34.112-34.113 34.112c-18.839 0-34.11-15.272-34.11-34.112s15.271-34.111 34.11-34.111z" />
<glyph unicode="&#xe908;" glyph-name="Comma-1" d="M31.1 33.804v394.445c0 51.61 3.686 106.907 18.432 158.516s33.178 103.219 62.669 147.455c25.805 44.237 58.982 84.787 103.219 121.651 40.55 33.178 88.474 55.297 143.77 73.729v-158.516c-33.178-14.745-58.982-33.177-81.101-58.982s-40.55-55.295-55.296-88.473c-14.746-33.179-25.805-66.355-33.178-103.219s-7.373-66.355-3.686-95.847h154.829v-390.758h-309.657zM598.806 33.804v394.445c0 51.61 3.686 106.907 18.432 158.516s33.178 103.219 62.669 147.455c25.805 44.237 58.982 84.787 103.219 121.651 40.55 33.178 88.474 55.297 143.77 73.729v-158.516c-33.178-14.745-58.982-33.177-81.101-58.982s-40.55-55.295-55.296-88.473c-14.746-33.179-25.805-66.355-33.178-103.219s-7.373-66.355-3.686-95.847h154.829v-390.758h-309.658z" />
<glyph unicode="&#xe909;" glyph-name="Comma-2" horiz-adv-x="922" d="M895.8 929.595v-394.445c0-51.61-3.686-106.906-18.432-158.515s-33.178-103.219-62.669-147.456c-25.805-44.237-58.982-84.787-103.219-121.651-40.55-33.178-88.474-55.296-143.77-73.728v158.515c33.178 14.746 58.982 33.178 81.101 58.982s40.55 55.296 55.296 88.474c14.746 33.178 25.805 66.355 33.178 103.219s7.373 66.355 3.686 95.846h-154.829v390.758h309.658zM328.095 929.595v-394.445c0-51.61-3.686-106.906-18.432-158.515s-33.178-103.219-62.669-147.456c-25.805-44.237-58.982-84.787-103.219-121.651-40.55-33.178-88.474-55.296-143.77-73.728v158.515c33.178 14.746 58.982 33.178 81.101 58.982s40.551 55.296 55.296 88.474c14.746 33.178 25.805 66.355 33.178 103.219s7.373 66.355 3.686 95.846h-154.829v390.758h309.658z" />
<glyph unicode="&#xe90a;" glyph-name="right-pg-arrow" horiz-adv-x="788" d="M787.692 448l-768-443.408v886.813l768-443.405z" />
<glyph unicode="&#xe90b;" glyph-name="left-pg-arrow" horiz-adv-x="788" d="M0 448l768 443.405v-886.813l-768 443.408z" />
<glyph unicode="&#xe90c;" glyph-name="hamburger-old" horiz-adv-x="1170" d="M1170.286 813.714h-1170.286v146.286h1170.286v-146.286zM1170.286 374.857h-1170.286v146.286h1170.286v-146.286zM1170.286-64h-1170.286v146.286h1170.286v-146.286z" />
<glyph unicode="&#xe90d;" glyph-name="cross" d="M1003.992 919.49c6.522-6.52 6.522-17.091 0-23.611l-947.659-947.635c-6.52-6.522-17.091-6.522-23.611 0-6.52 6.518-6.52 17.092 0 23.61l947.66 947.637c6.518 6.52 17.092 6.52 23.61 0zM32.751 927.284c6.52 6.52 17.091 6.52 23.611 0l947.639-947.661c6.518-6.518 6.518-17.087-0.004-23.61-6.518-6.518-17.087-6.518-23.61 0l-947.636 947.66c-6.52 6.52-6.52 17.091 0 23.611z" />
<glyph unicode="&#xe90e;" glyph-name="search-old" horiz-adv-x="916" d="M348.027 312.099c-139.737 0-260.981 121.034-260.981 280.428s121.244 280.426 260.981 280.426c139.737 0 260.978-121.031 260.978-280.426s-121.241-280.428-260.978-280.428zM348.027 225.054c192.208 0 348.028 164.524 348.028 367.474s-155.82 367.473-348.028 367.473c-192.21 0-348.027-164.523-348.027-367.473s155.817-367.474 348.027-367.474zM538.947 367.163l344.015-363.24-59.855-63.202-344.016 363.24 59.856 63.202z" />
<glyph unicode="&#xe90f;" glyph-name="Close" d="M0 124.526l835.474 835.474 111.395-111.396-835.473-835.473-111.396 111.395zM111.396 960l835.473-835.474-111.395-111.395-835.474 835.473 111.396 111.396z" />
<glyph unicode="&#xe910;" glyph-name="Filter" horiz-adv-x="1536" d="M0 960h1536v-204.8h-1536v204.8zM307.2 550.4h921.6v-204.8h-921.6v204.8zM512 140.8h512v-204.8h-512v204.8z" />
<glyph unicode="&#xe911;" glyph-name="search" horiz-adv-x="960" d="M940.8 44.8l-217.6 217.6c64 76.8 108.8 172.8 108.8 281.6 0 230.4-185.6 416-416 416s-416-185.6-416-416 185.6-416 416-416c76.8 0 147.2 19.2 204.8 57.6l230.4-230.4 89.6 89.6zM128 544c0 160 128 288 288 288s288-128 288-288-128-288-288-288-288 128-288 288z" />
<glyph unicode="&#xe912;" glyph-name="hamburger" horiz-adv-x="1170" d="M0 960h1170.286v-146.286h-1170.286v146.286zM0 521.143h1170.286v-146.286h-1170.286v146.286zM0 82.286h1170.286v-146.286h-1170.286v146.286z" />
<glyph unicode="&#xe913;" glyph-name="play_video_1" d="M512 938.667c-270.933 0-490.667-219.733-490.667-490.667s219.733-490.667 490.667-490.667 490.667 219.733 490.667 490.667-219.733 490.667-490.667 490.667zM512-21.333c-260.267 0-469.333 209.067-469.333 469.333s209.067 469.333 469.333 469.333 469.333-209.067 469.333-469.333c0-260.267-209.067-469.333-469.333-469.333zM416 317.867l224 130.133-224 130.133z" />
<glyph unicode="&#xe914;" glyph-name="pause_video_1" d="M512 938.667c-270.933 0-490.667-219.733-490.667-490.667s219.733-490.667 490.667-490.667 490.667 219.733 490.667 490.667-219.733 490.667-490.667 490.667zM512-21.333c-260.267 0-469.333 209.067-469.333 469.333s209.067 469.333 469.333 469.333 469.333-209.067 469.333-469.333c0-260.267-209.067-469.333-469.333-469.333zM405.333 554.667h64v-234.667h-64v234.667zM554.667 554.667h64v-234.667h-64v234.667z" />
<glyph unicode="&#xe915;" glyph-name="share_video" d="M861.867 441.6v0c-23.467 0-42.667-19.2-42.667-42.667v-356.267h-712.533v712.533h379.733c23.467 0 42.667 19.2 42.667 42.667s-19.2 42.667-42.667 42.667h-394.667c-38.4 0-70.4-32-70.4-70.4v-770.133c0-23.467 19.2-42.667 42.667-42.667h761.6c2.133 0 6.4 0 8.533 0 38.4 0 70.4 32 70.4 70.4v371.2c0 23.467-19.2 42.667-42.667 42.667zM983.467 896c0 2.133 0 6.4 0 8.533s0 2.133-2.133 4.267c0 2.133 0 2.133-2.133 4.267 0 2.133-2.133 2.133-2.133 4.267 0 0 0 2.133-2.133 2.133-2.133 4.267-6.4 8.533-12.8 12.8 0 0-2.133 0-2.133 2.133-2.133 0-2.133 2.133-4.267 2.133s-2.133 0-4.267 2.133c-2.133 0-2.133 0-4.267 2.133-2.133 0-4.267 0-6.4 0 0 0-2.133 0-2.133 0h-285.867c-23.467 0-42.667-19.2-42.667-42.667s19.2-42.667 42.667-42.667h187.733l-462.933-462.933c-17.067-17.067-17.067-42.667 0-59.733 8.533-8.533 19.2-12.8 29.867-12.8s21.333 4.267 29.867 12.8l460.8 460.8v-187.733c0-23.467 19.2-42.667 42.667-42.667s42.667 19.2 42.667 42.667v290.133c0 0 0 0 0 0z" />
<glyph unicode="&#xe916;" glyph-name="play_video_2" d="M390.4 198.4l362.667 249.6-362.667 249.6zM512 949.333c-277.333 0-501.333-224-501.333-501.333s224-501.333 501.333-501.333c277.333 0 501.333 224 501.333 501.333s-224 501.333-501.333 501.333zM512-32c-264.533 0-480 215.467-480 480s215.467 480 480 480c264.533 0 480-215.467 480-480s-215.467-480-480-480z" />
<glyph unicode="&#xe917;" glyph-name="play_main" d="M512 960c-282.712 0-512-229.286-512-512s229.286-512 512-512 512 229.286 512 512-229.286 512-512 512zM512-19.477c-258.226 0-467.478 209.252-467.478 467.478s209.252 467.478 467.478 467.478 467.478-209.252 467.478-467.478-209.252-467.478-467.478-467.478zM687.86 456.904l-244.87 142.469c-15.582 8.904-33.391-2.226-33.391-20.035v-282.712c0-17.809 17.809-28.939 33.391-20.035l244.87 142.469c13.357 6.678 13.357 28.939 0 37.844z" />
<glyph unicode="&#xe918;" glyph-name="read-article-arrow" horiz-adv-x="1365" d="M1217.422 425.244c0 0 11.378 11.378 11.378 11.378s0 0 0 11.378c0 0 0 11.378 0 11.378s0 11.378 0 11.378c0 0 0 11.378 0 11.378s-11.378 11.378-11.378 11.378c0 0 0 0 0 0v0c0 0 0 0 0 0s0 0 0 0l-420.978 386.844c-22.756 22.756-56.889 22.756-79.644 0s-22.756-56.889 0-79.644l307.2-284.444-910.222-11.378c-34.133 0-56.889-34.133-56.889-56.889 0-34.133 34.133-56.889 56.889-56.889l910.222 11.378-318.578-318.578c-22.756-22.756-11.378-56.889 11.378-79.644s56.889-22.756 79.644 0l420.978 420.978c0-11.378 0-11.378 0 0 0-11.378 0-11.378 0 0v0c0 0 0 0 0 0z" />
<glyph unicode="&#xe919;" glyph-name="back_testi" d="M15.056 484.345c-0.076-0.076-0.102-0.153-0.152-0.204-2.325-2.35-4.409-4.917-6.277-7.649-0.902-1.385-1.537-2.859-2.312-4.32-0.839-1.5-1.728-2.923-2.401-4.51-0.763-1.907-1.245-3.863-1.791-5.832-0.369-1.259-0.852-2.452-1.118-3.786-1.347-6.709-1.335-13.608 0.013-20.317 0.216-1.131 0.661-2.185 0.941-3.278 0.61-2.134 1.131-4.256 1.982-6.303 0.572-1.384 1.36-2.604 2.033-3.888 0.876-1.689 1.639-3.391 2.719-4.98 1.385-2.097 3.049-3.965 4.74-5.832 0.585-0.636 1.017-1.347 1.626-1.956l249.187-249.187c20.113-20.113 52.729-20.126 72.854 0 20.113 20.114 20.113 52.742 0 72.854l-161.263 161.263h796.652c28.461-0.025 51.523 23.036 51.512 51.51 0.011 14.219-5.755 27.101-15.080 36.428-9.304 9.301-22.219 15.094-36.432 15.082l-796.62-0.032 161.429 161.428c20.126 20.126 20.099 52.754-0.014 72.867-20.101 20.101-52.729 20.126-72.854 0l-249.372-249.357z" />
<glyph unicode="&#xe91a;" glyph-name="share_twitter" d="M1023.999 765.478c-37.689-16.7-78.127-28.026-120.617-33.083 43.387 25.98 76.595 67.188 92.334 116.139-40.694-24.059-85.617-41.529-133.479-50.999-38.328 40.888-92.846 66.356-153.318 66.356-116.010 0-210.070-94.063-210.070-210.009 0-16.444 1.853-32.505 5.438-47.864-174.559 8.767-329.346 92.4-432.942 219.481-18.109-30.972-28.411-67.059-28.411-105.581 0-72.884 37.114-137.191 93.424-174.815-34.426 1.152-66.805 10.621-95.15 26.363v-2.623c0-101.742 72.435-186.653 168.481-205.98-17.597-4.736-36.153-7.358-55.35-7.358-13.565 0-26.683 1.341-39.545 3.902 26.747-83.502 104.301-144.226 196.19-145.89-71.86-56.31-162.467-89.779-260.88-89.779-16.957 0-33.659 1.024-50.102 2.882 92.975-59.704 203.355-94.511 321.989-94.511 386.424 0 597.65 320.068 597.65 597.648l-0.702 27.194c41.268 29.436 76.975 66.421 105.063 108.526z" />
<glyph unicode="&#xe91b;" glyph-name="share_fb" d="M722.743 388.35l25.137 183.921h-157.254v119.354c0 50.318 21.966 99.364 92.401 99.364h71.499v156.582c0 0-64.888 12.428-126.922 12.428-129.517 0-214.165-88.084-214.165-247.551v-140.178h-143.966v-183.921h143.966v-444.621c28.867-5.082 58.455-7.728 88.595-7.728s59.726 2.646 88.593 7.728v444.621h132.117z" />
<glyph unicode="&#xe91c;" glyph-name="share_linkedin" d="M0 836.897c0 67.861 55.065 122.925 122.927 122.925 67.818 0 122.883-55.065 122.927-122.925 0-67.862-55.065-124.079-122.927-124.079s-122.927 56.217-122.927 124.079zM1023.744-63.821v0.043h0.256v375.432c0 183.665-39.538 325.146-254.251 325.146-103.222 0-172.491-56.644-200.768-110.344h-2.988v93.197h-203.582v-683.431h211.985v338.408c0 89.104 16.893 175.264 127.237 175.264 108.72 0 110.344-101.684 110.344-180.979v-332.737h211.768zM16.55 619.626h212.242v-683.431h-212.242v683.431z" />
<glyph unicode="&#xe91d;" glyph-name="share_print" d="M827.073 689.189c-7.875 0-11.813 0-15.751-4.020-7.88-4.020-15.755-8.040-23.631-8.040v172.853c0 24.119-15.755 40.198-39.386 40.198h-472.614c-23.631 0-39.384-16.079-39.384-40.198v-172.853c-7.877 4.020-15.754 4.020-23.631 8.040-3.939 4.020-7.877 4.020-15.754 4.020-110.277 0-196.922-88.436-196.922-200.991v-321.587c0-24.12 15.754-40.196 39.384-40.196h43.323l-39.384-56.278c-7.877-12.060-7.877-28.142 0-40.196 7.877-12.060 19.693-24.12 35.447-24.12h866.461c15.755 0 27.569 8.038 35.445 20.098 7.88 12.060 7.88 28.136 0 40.196l-39.382 56.278h43.32c23.631 0 39.386 16.082 39.386 40.201v321.584c0 116.574-86.644 205.011-196.924 205.011zM787.692 488.198c23.631 0 39.382-16.080 39.382-40.198s-15.751-40.2-39.382-40.2c-23.631 0-39.386 16.082-39.386 40.2s15.755 40.198 39.386 40.198zM315.076 809.784h393.847v-164.814c-129.969-40.198-263.878-40.198-393.847 0v164.814zM153.6 86.213l106.339 160.796h508.060l106.338-160.796h-720.737z" />
<glyph unicode="&#xe91e;" glyph-name="share_link" d="M138.817 451.476c23.111 23.117 60.588 23.124 83.706 0.012s23.124-60.586 0.012-83.703l-76.724-76.746c-39.566-39.551-36.513-109.981 10.428-156.938l41.84-41.842c46.969-46.963 117.413-50.025 156.959-10.468l230.203 230.203c39.562 39.53 36.499 109.965-10.448 156.938-23.107 23.121-23.095 60.597 0.027 83.705s60.6 23.095 83.706-0.026c91.607-91.658 97.918-236.89 10.405-324.34l-230.183-230.181c-87.476-87.492-232.718-81.175-324.375 10.463l-41.85 41.853c-91.619 91.65-97.914 236.875-10.416 324.34l76.709 76.731zM906.276 465.602c-23.112-23.113-60.59-23.111-83.706 0.004-23.112 23.116-23.112 60.592 0.005 83.705l55.629 55.623c39.557 39.566 36.494 109.999-10.468 156.957l-41.859 41.863c-46.915 46.943-117.361 50.006-156.944 10.451l-230.183-230.184c-39.553-39.56-36.49-109.998 10.469-156.947 23.116-23.112 23.119-60.59 0.007-83.706s-60.59-23.117-83.706-0.005c-91.648 91.629-97.962 236.861-10.481 324.359l230.203 230.204c87.535 87.471 232.776 81.157 324.357-10.483l41.837-41.845c91.65-91.63 97.966-236.855 10.48-324.363l-55.64-55.631z" />
<glyph unicode="&#xe91f;" glyph-name="share_email" d="M1023.998 75.691v704.579l-349.601-290.326 181.6-225.163-5.334-5.818-210.399 202.471-128.265-106.474-128.267 106.474-210.399-202.471-5.333 5.818 181.333 225.163-349.333 289.745v-703.998h1024zM1001.798 820.309h-980.531l490.666-406.981 489.866 406.981z" />
<glyph unicode="&#xe920;" glyph-name="plus" d="M482.823-31.393c0-13.468 10.896-23.698 24.335-22.855s24.332 12.444 24.332 25.912v456.845h456.845c13.468 0 25.068 10.893 25.912 24.332s-9.387 24.335-22.855 24.335h-459.903v459.922c0 13.465-10.898 23.697-24.332 22.853-13.439-0.844-24.336-12.444-24.336-25.909v-456.865h-456.865c-13.465 0-25.065-10.897-25.909-24.336s9.387-24.332 22.853-24.332h459.922v-459.903z" />
<glyph unicode="&#xe921;" glyph-name="arrow-left" d="M712.932-63.98l-510.060 513.924 506.196 510.060 112.058-108.195-401.866-401.866 401.866-401.866z" />
<glyph unicode="&#xe92a;" glyph-name="search-new" horiz-adv-x="935" d="M722.356 532.707c0 174.885-141.771 316.657-316.656 316.657s-316.657-141.772-316.657-316.657c0-174.886 141.772-316.656 316.657-316.656s316.656 141.771 316.656 316.656zM622.641 189.823c-62.74-39.785-137.149-62.816-216.941-62.816-224.062 0-405.7 181.64-405.7 405.7 0 224.062 181.638 405.701 405.7 405.701 224.064 0 405.699-181.638 405.699-405.701 0-112.035-45.412-213.464-118.833-286.885l212.191-212.231-62.972-62.954-219.145 219.185z" />
</font>
</defs>
</svg>
